Paste MC

Mega Colecciones

Gods of Egypt (2016) 1080P BD25 NFO

DISC INFO:

Disc Title: Gods.of.Egypt.2016.BD25.1080p.Lat.Ing
Protection: AACS
BD-Java: Yes
BDInfo: 0.5.8

PLAYLIST REPORT:

Name: 00320.MPLS
Length: 2:07:02.656 (h:m:s.ms)
Size: 36.242.982.912 bytes
Total Bitrate: 38,04 Mbps

VIDEO:

Codec Bitrate Description
----- ------- -----------
MPEG-4 AVC Video 28846 kbps 1080p / 23,976 fps / 16:9 / High Profile 4.1

AUDIO:

Codec Language Bitrate Description
----- -------- ------- -----------
DTS-HD Master Audio English 4735 kbps 7.1 / 48 kHz / 4735 kbps / 24-bit (DTS Core: 5.1 / 48 kHz / 1509 kbps / 24-bit)
DTS Audio Spanish 768 kbps 5.1 / 48 kHz / 768 kbps / 24-bit
DTS Audio English 768 kbps 2.0 / 48 kHz / 768 kbps / 24-bit
DTS Audio English 768 kbps 2.0 / 48 kHz / 768 kbps / 24-bit

SUBTITLES:

Codec Language Bitrate Description
----- -------- ------- -----------
Presentation Graphics English 26,424 kbps
Presentation Graphics English 29,958 kbps
Presentation Graphics Spanish 26,428 kbps

FILES:

Name Time In Length Size Total Bitrate
---- ------- ------ ---- -------------
00510.M2TS 0:00:00.000 0:04:07.914 1.357.363.200 43.801
00519.M2TS 0:04:07.914 0:00:47.589 256.167.936 43.063
00512.M2TS 0:04:55.503 0:24:00.605 7.438.946.304 41.310
00515.M2TS 0:28:56.109 0:00:52.052 264.935.424 40.719
00516.M2TS 0:29:48.161 0:26:09.317 7.958.120.448 40.569
00509.M2TS 0:55:57.479 0:00:20.979 113.743.872 43.374
00504.M2TS 0:56:18.458 0:10:18.868 3.136.143.360 40.540
00511.M2TS 1:06:37.326 0:00:30.905 136.599.552 35.359
00505.M2TS 1:07:08.232 0:07:15.143 2.294.224.896 42.179
00502.M2TS 1:14:23.375 0:00:23.732 93.886.464 31.649
00518.M2TS 1:14:47.107 0:17:24.668 4.697.757.696 35.975
00514.M2TS 1:32:11.776 0:00:42.125 211.138.560 40.097
00507.M2TS 1:32:53.901 0:16:01.710 4.390.754.304 36.525
00503.M2TS 1:48:55.612 0:00:23.106 95.084.544 32.921
00501.M2TS 1:49:18.718 0:17:43.937 3.798.116.352 28.559

Reportar Error Visitas: 26