Paste MC

Mega Colecciones

Red Sparrow (2018) 1080p Remux NFO

General
Unique ID : 290030497973197847258045831789876894610 (0xDA31D792C3F172635050BFEC56305B92)
Complete name : C:\Red Sparrow (2018) 1080p Remux.mkv
Format : Matroska
Format version : Version 4 / Version 2
File size : 28.9 GiB
Duration : 2 h 20 min
Overall bit rate mode : Variable
Overall bit rate : 29.5 Mb/s
Movie name : Red Sparrow (2018) - www.MegaColecciones.com
Encoded date : UTC 2018-05-16 04:46:31
Writing application : mkvmerge v20.0.0 ('I Am The Sun') 64-bit
Writing library : libebml v1.3.5 + libmatroska v1.4.8

Video
ID : 1
Format : AVC
Format/Info : Advanced Video Codec
Format profile : High@L4.1
Format settings, CABAC : Yes
Format settings, RefFrames : 4 frames
Codec ID : V_MPEG4/ISO/AVC
Duration : 2 h 20 min
Bit rate mode : Variable
Bit rate : 21.9 Mb/s
Maximum bit rate : 31.0 Mb/s
Width : 1 920 pixels
Height : 1 080 pixels
Display aspect ratio : 16:9
Frame rate mode : Constant
Frame rate : 23.976 (24000/1001) FPS
Color space : YUV
Chroma subsampling : 4:2:0
Bit depth : 8 bits
Scan type : Progressive
Bits/(Pixel*Frame) : 0.441
Stream size : 21.5 GiB (74%)
Title : www.MegaColecciones.com
Language : English
Default : No
Forced : No

Audio #1
ID : 2
Format : AC-3
Format/Info : Audio Coding 3
Format settings, Endianness : Big
Codec ID : A_AC3
Duration : 2 h 20 min
Bit rate mode : Constant
Bit rate : 448 kb/s
Channel(s) : 6 channels
Channel positions : Front: L C R, Side: L R, LFE
Sampling rate : 48.0 kHz
Frame rate : 31.250 FPS (1536 SPF)
Bit depth : 16 bits
Compression mode : Lossy
Stream size : 449 MiB (2%)
Language : Latin
Service kind : Complete Main
Default : Yes
Forced : Yes

Audio #2
ID : 3
Format : DTS
Format/Info : Digital Theater Systems
Format profile : MA / ES Matrix / Core
Mode : 16
Format settings, Endianness : Big
Codec ID : A_DTS
Duration : 2 h 20 min
Bit rate mode : Variable / Constant / Constant
Bit rate : 4 399 kb/s / 1 509 kb/s / 1 509 kb/s
Channel(s) : 8 channels / 7 channels / 6 channels
Channel positions : Front: L C R, Side: L R, Back: L R, LFE / Front: L C R, Side: L R, Back: C, LFE / Front: L C R, Side: L R, LFE
Sampling rate : 48.0 kHz
Frame rate : 93.750 FPS (512 SPF)
Bit depth : 24 bits
Compression mode : Lossless / Lossy / Lossy
Stream size : 4.31 GiB (15%)
Language : English
Default : No
Forced : No

Audio #3
ID : 4
Format : DTS
Format/Info : Digital Theater Systems
Format profile : ES Matrix / Core
Mode : 16
Format settings, Endianness : Big
Codec ID : A_DTS
Duration : 2 h 20 min
Bit rate mode : Constant
Bit rate : 1 509 kb/s
Channel(s) : 7 channels / 6 channels
Channel positions : Front: L C R, Side: L R, Back: C, LFE / Front: L C R, Side: L R, LFE
Sampling rate : 48.0 kHz
Frame rate : 93.750 FPS (512 SPF)
Bit depth : 24 bits
Compression mode : Lossy
Stream size : 1.48 GiB (5%)
Language : English
Default : No
Forced : No

Audio #4
ID : 5
Format : AC-3
Format/Info : Audio Coding 3
Format settings, Endianness : Big
Codec ID : A_AC3
Duration : 2 h 20 min
Bit rate mode : Constant
Bit rate : 448 kb/s
Channel(s) : 6 channels
Channel positions : Front: L C R, Side: L R, LFE
Sampling rate : 48.0 kHz
Frame rate : 31.250 FPS (1536 SPF)
Bit depth : 16 bits
Compression mode : Lossy
Stream size : 449 MiB (2%)
Language : English
Service kind : Complete Main
Default : No
Forced : No

Audio #5
ID : 6
Format : AC-3
Format/Info : Audio Coding 3
Format settings, Endianness : Big
Codec ID : A_AC3
Duration : 2 h 20 min
Bit rate mode : Constant
Bit rate : 448 kb/s
Channel(s) : 6 channels
Channel positions : Front: L C R, Side: L R, LFE
Sampling rate : 48.0 kHz
Frame rate : 31.250 FPS (1536 SPF)
Bit depth : 16 bits
Compression mode : Lossy
Stream size : 449 MiB (2%)
Language : French
Service kind : Complete Main
Default : No
Forced : No

Audio #6
ID : 7
Format : AC-3
Format/Info : Audio Coding 3
Format settings, Endianness : Big
Codec ID : A_AC3
Duration : 2 h 20 min
Bit rate mode : Constant
Bit rate : 224 kb/s
Channel(s) : 2 channels
Channel positions : Front: L R
Sampling rate : 48.0 kHz
Frame rate : 31.250 FPS (1536 SPF)
Bit depth : 16 bits
Compression mode : Lossy
Stream size : 225 MiB (1%)
Language : English
Service kind : Complete Main
Default : No
Forced : No

Text #1
ID : 8
Format : PGS
Muxing mode : zlib
Codec ID : S_HDMV/PGS
Codec ID/Info : Picture based subtitle format used on BDs/HD-DVDs
Duration : 2 h 12 min
Bit rate : 35.3 kb/s
Count of elements : 3554
Stream size : 33.5 MiB (0%)
Title : English-PGS
Language : English
Default : No
Forced : No

Text #2
ID : 9
Format : PGS
Muxing mode : zlib
Codec ID : S_HDMV/PGS
Codec ID/Info : Picture based subtitle format used on BDs/HD-DVDs
Duration : 2 h 18 min
Bit rate : 27.8 kb/s
Count of elements : 2926
Stream size : 27.6 MiB (0%)
Title : Spanish-PGS
Language : Spanish
Default : No
Forced : No

Text #3
ID : 10
Format : PGS
Muxing mode : zlib
Codec ID : S_HDMV/PGS
Codec ID/Info : Picture based subtitle format used on BDs/HD-DVDs
Duration : 44 min 10 s
Bit rate : 228 b/s
Count of elements : 6
Stream size : 73.8 KiB (0%)
Title : Spanish-FORCED-PGS
Language : Spanish
Default : Yes
Forced : No

Text #4
ID : 11
Format : PGS
Muxing mode : zlib
Codec ID : S_HDMV/PGS
Codec ID/Info : Picture based subtitle format used on BDs/HD-DVDs
Duration : 2 h 18 min
Bit rate : 26.8 kb/s
Count of elements : 3124
Stream size : 26.5 MiB (0%)
Title : French-PGS
Language : French
Default : No
Forced : No

Text #5
ID : 12
Format : PGS
Muxing mode : zlib
Codec ID : S_HDMV/PGS
Codec ID/Info : Picture based subtitle format used on BDs/HD-DVDs
Duration : 2 h 8 min
Bit rate : 150 b/s
Count of elements : 14
Stream size : 142 KiB (0%)
Title : French-FORCED-PGS
Language : French
Default : No
Forced : No

Text #6
ID : 13
Format : PGS
Muxing mode : zlib
Codec ID : S_HDMV/PGS
Codec ID/Info : Picture based subtitle format used on BDs/HD-DVDs
Duration : 2 h 13 min
Bit rate : 77.6 kb/s
Count of elements : 4914
Stream size : 74.1 MiB (0%)
Title : English-COMMENTARY-PGS
Language : English
Default : No
Forced : No

Text #7
ID : 14
Format : PGS
Muxing mode : zlib
Codec ID : S_HDMV/PGS
Codec ID/Info : Picture based subtitle format used on BDs/HD-DVDs
Duration : 2 h 19 min
Bit rate : 65.7 kb/s
Count of elements : 4842
Stream size : 65.7 MiB (0%)
Title : Spanish-COMMENTARY-PGS
Language : Spanish
Default : No
Forced : No

Text #8
ID : 15
Format : PGS
Muxing mode : zlib
Codec ID : S_HDMV/PGS
Codec ID/Info : Picture based subtitle format used on BDs/HD-DVDs
Duration : 2 h 19 min
Bit rate : 59.2 kb/s
Count of elements : 4842
Stream size : 59.2 MiB (0%)
Title : French-COMMENTARY-PGS
Language : French
Default : No
Forced : No

Text #9
ID : 16
Format : PGS
Muxing mode : zlib
Codec ID : S_HDMV/PGS
Codec ID/Info : Picture based subtitle format used on BDs/HD-DVDs
Duration : 6 s 173 ms
Bit rate : 40.4 kb/s
Count of elements : 4
Stream size : 30.5 KiB (0%)
Title : English-FORCED-PGS
Language : English
Default : No
Forced : No


Reportar Error Visitas: 24