Paste MC

Mega Colecciones

Friends Serie Completa (1994-2004) BDRip 1080p x265 (Latino-Ingles) NFO

General
Unique ID : 120148684459062637906139047535842245272 (0x5A63CB7FBC5FDE8F589C6A1496CD3A98)
Complete name : C:\Friends - S01E01 - En el qué Mónica tiene una Compañera.mkv
Format : Matroska
Format version : Version 4 / Version 2
File size : 449 MiB
Duration : 22 min 49 s
Overall bit rate : 2 750 kb/s
Movie name : Friends - S01E01 - En el qué Mónica tiene una Compañera
Encoded date : UTC 2018-06-05 00:02:52
Writing application : mkvmerge v20.0.0 ('I Am The Sun') 64-bit
Writing library : libebml v1.3.5 + libmatroska v1.4.8

Video
ID : 1
Format : HEVC
Format/Info : High Efficiency Video Coding
Format profile : Main@L4@Main
Codec ID : V_MPEGH/ISO/HEVC
Duration : 22 min 49 s
Bit rate : 2 001 kb/s
Width : 1 920 pixels
Height : 1 080 pixels
Display aspect ratio : 16:9
Frame rate mode : Constant
Frame rate : 23.976 (24000/1001) FPS
Color space : YUV
Chroma subsampling : 4:2:0
Bit depth : 8 bits
Bits/(Pixel*Frame) : 0.040
Stream size : 327 MiB (73%)
Title : www.MegaColecciones.com
Writing library : x265 2.0:[Windows][GCC 4.9.0][64 bit] 8bit
Encoding settings : wpp / ctu=64 / min-cu-size=8 / max-tu-size=32 / tu-intra-depth=1 / tu-inter-depth=1 / me=3 / subme=3 / merange=57 / rect / no-amp / max-merge=2 / temporal-mvp / no-early-skip / no-rskip / rdpenalty=0 / no-tskip / no-tskip-fast / no-strong-intra-smoothing / no-lossless / no-cu-lossless / no-constrained-intra / no-fast-intra / open-gop / no-temporal-layers / interlace=0 / keyint=240 / min-keyint=24 / scenecut=40 / rc-lookahead=20 / lookahead-slices=6 / bframes=8 / bframe-bias=0 / b-adapt=2 / ref=3 / limit-refs=3 / no-limit-modes / weightp / no-weightb / aq-mode=2 / qg-size=32 / aq-strength=0.50 / cbqpoffs=0 / crqpoffs=0 / rd=3 / psy-rd=0.30 / rdoq-level=0 / psy-rdoq=0.00 / no-rd-refine / signhide / deblock=0:0 / sao / no-sao-non-deblock / b-pyramid / cutree / no-intra-refresh / rc=2 / pass / bitrate=2000 / qcomp=0.60 / qpmin=0 / qpmax=51 / qpstep=4 / cplxblur=20.0 / qblur=0.5 / ipratio=1.40 / pbratio=1.30
Default : Yes
Forced : No
Color range : Limited
Color primaries : BT.709
Transfer characteristics : BT.709
Matrix coefficients : BT.709

Audio #1
ID : 2
Format : AAC
Format/Info : Advanced Audio Codec
Format profile : HE-AACv2 / HE-AAC / LC
Codec ID : A_AAC
Duration : 22 min 49 s
Bit rate : 32.1 kb/s
Channel(s) : 2 channels / 1 channel / 1 channel
Channel positions : Front: L R / Front: C / Front: C
Sampling rate : 48.0 kHz / 48.0 kHz / 24.0 kHz
Frame rate : 23.438 FPS (1024 SPF)
Compression mode : Lossy
Delay relative to video : -21 ms
Stream size : 5.24 MiB (1%)
Title : Español Latino
Language : Latin
Default : Yes
Forced : Yes

Audio #2
ID : 3
Format : AAC
Format/Info : Advanced Audio Codec
Format profile : LC
Codec ID : A_AAC
Duration : 22 min 49 s
Bit rate : 714 kb/s
Channel(s) : 6 channels
Channel positions : Front: L C R, Side: L R, LFE
Sampling rate : 48.0 kHz
Frame rate : 46.875 FPS (1024 SPF)
Compression mode : Lossy
Delay relative to video : -21 ms
Stream size : 117 MiB (26%)
Title : Ingles USA
Language : English
Default : No
Forced : No

Text
ID : 4
Format : UTF-8
Codec ID : S_TEXT/UTF8
Codec ID/Info : UTF-8 Plain Text
Duration : 21 min 48 s
Bit rate : 75 b/s
Count of elements : 319
Stream size : 12.1 KiB (0%)
Title : Español Latino
Language : Spanish
Default : No
Forced : No


Reportar Error Visitas: 33